#TITLE:Wow;
#SUBTITLE:Expi3nze & sdo;
#ARTIST:Elva Hsiao;
#TITLETRANSLIT:;
#SUBTITLETRANSLIT:;
#ARTISTTRANSLIT:;
#CREDIT:;
#BANNER:bn.png;
#BACKGROUND:bg.png;
#LYRICSPATH:;
#CDTITLE:cdtitle.png;
#MUSIC:Wow.mp3;
#OFFSET:-0.324;
#SAMPLESTART:47.960;
#SAMPLELENGTH:23.273;
#SELECTABLE:YES;
#BPMS:0.000=165.004,1.000=164.993,2.000=165.004,4.000=164.993,5.000=165.004,7.000=164.993,8.000=165.004,9.000=164.993,10.000=165.004,12.000=164.993,13.000=165.004,15.000=164.993,16.000=165.004,18.000=164.993,19.000=165.004,20.000=164.993,21.000=165.004,23.000=164.993,24.000=165.004,26.000=164.993,27.000=165.004,29.000=164.993,30.000=165.004,31.000=164.993,32.000=165.004,34.000=164.993,35.000=165.004,37.000=164.993,38.000=165.004,40.000=164.993,41.000=165.004,42.000=164.993,43.000=165.004,45.000=164.993,46.000=165.004,48.000=164.993,49.000=165.004,51.000=164.993,52.000=165.004,53.000=164.993,54.000=165.004,56.000=164.993,57.000=165.004,59.000=164.993,60.000=165.004,62.000=164.993,63.000=165.004,64.000=164.993,65.000=165.004,67.000=164.993,68.000=165.004,70.000=164.993,71.000=165.004,72.000=164.993,73.000=165.004,75.000=164.993,76.000=165.004,78.000=164.993,79.000=165.004,81.000=164.993,82.000=165.004,83.000=164.993,84.000=165.004,86.000=164.993,87.000=165.004,89.000=164.993,90.000=165.004,92.000=164.993,93.000=165.004,94.000=164.993,95.000=165.004,97.000=164.993,98.000=165.004,100.000=164.993,101.000=165.004,103.000=164.993,104.000=165.004,105.000=164.993,106.000=165.004,108.000=164.993,109.000=165.004,111.000=164.993,112.000=165.004,114.000=164.993,115.000=165.004,116.000=164.993,117.000=165.004,119.000=164.993,120.000=165.004,122.000=164.993,123.000=165.004,125.000=164.993,126.000=165.004,127.000=164.993,128.000=165.004,130.000=164.993,131.000=165.004,133.000=164.993,134.000=165.004,135.000=164.993,136.000=165.004,138.000=164.993,139.000=165.004,141.000=164.993,142.000=165.004,144.000=164.993,145.000=165.004,146.000=164.993,147.000=165.004,149.000=164.993,150.000=165.004,152.000=164.993,153.000=165.004,155.000=164.993,156.000=165.004,157.000=164.993,158.000=165.004,160.000=164.993,161.000=165.004,163.000=164.993,164.000=165.004,166.000=164.993,167.000=165.004,168.000=164.993,169.000=165.004,171.000=164.993,172.000=165.004,174.000=164.993,175.000=165.004,177.000=164.993,178.000=165.004,179.000=164.993,180.000=165.004,182.000=164.993,183.000=165.004,185.000=164.993,186.000=165.004,188.000=164.993,189.000=165.004,190.000=164.993,191.000=165.004,193.000=164.993,194.000=165.004,196.000=164.993,197.000=165.004,199.000=164.993,200.000=165.004,201.000=164.993,202.000=165.004,204.000=164.993,205.000=165.004,207.000=164.993,208.000=165.004,210.000=164.993,211.000=165.004,212.000=164.993,213.000=165.004,215.000=164.993,216.000=165.004,218.000=164.993,219.000=165.004,221.000=164.993,222.000=165.004,223.000=164.993,224.000=165.004,226.000=164.993,227.000=165.004,229.000=164.993,230.000=165.004,232.000=164.993,233.000=165.004,234.000=164.993,235.000=165.004,237.000=164.993,238.000=165.004,240.000=164.993,241.000=165.004,243.000=164.993,244.000=165.004,245.000=164.993,246.000=165.004,248.000=164.993,249.000=165.004,251.000=164.993,252.000=165.004,254.000=164.993,255.000=165.004,256.000=164.993,257.000=165.004;
#STOPS:;
#BGCHANGES:;
// cache tags:
#FIRSTBEAT:2.000;
#LASTBEAT:255.000;
#SONGFILENAME:Songs/SDO pack 1/Wow (Elva Hsiao)/Wow.sm;
#HASMUSIC:1;
#HASBANNER:1;
#MUSICLENGTH:94.288;
// end cache tags

//---------------dance-single - ----------------
#NOTES:
     dance-single:
     :
     Hard:
     18:
     1.000,0.947,1.000,0.901,0.000,418.000,182.000,85.000,0.000,102.000:
0000
0000
0000
0000
0020
0000
1032
0100
,
0010
1100
0000
1100
0010
1000
2103
0010
,
0001
0110
0000
0110
0000
0010
3201
0010
,
0010
0011
0000
0011
0001
0001
1320
0001
,
1000
1100
0000
1100
0000
1000
0232
1000
,
1300
1100
0000
1100
0100
0100
2013
0100
,
0001
0011
0000
0011
0000
0001
3221
1000
,
0001
1001
0030
1001
0001
1000
0321
1000
,
1000
0101
0000
0101
0100
1000
0032
0000
,
0103
0011
1000
0010
0011
0100
0010
0100
,
1000
0011
1000
0011
1000
0001
2000
0000
,
3010
1100
0010
1100
1001
0010
0001
0100
,
0010
1100
0012
1100
1003
0100
2000
0000
,
3001
0011
1000
0010
0011
0100
0010
1000
,
0010
1100
0012
1100
0013
0000
0010
0100
,
0012
1100
1003
0010
1001
1100
0010
0100
,
0001
1100
0021
1100
0031
0000
2010
0000
,
0001
0101
0000
0010
3101
1020
1000
0001
,
1000
1100
0030
0011
1100
0000
0001
0100
,
0010
1100
0001
0120
1001
2031
0010
0100
,
0001
0101
0010
3001
1001
0000
2010
0000
,
0001
0101
0000
0010
3101
1020
1000
0001
,
1000
1100
0030
0011
1100
0000
0001
0100
,
0010
1100
0001
0120
1001
2031
0120
0000
,
0131
0101
3101
0000
1001
0000
0000
0100
,
0001
1100
0010
0100
1201
0011
0300
0010
,
1000
0011
0100
0011
1002
0000
0003
0100
,
0010
1100
0001
0100
1120
1100
1030
0010
,
0100
0011
2100
0011
3201
0000
0300
0010
,
1000
0011
0100
0001
0211
0011
0300
0100
,
0010
1000
0110
0010
2002
0000
3003
0100
,
0010
1100
0001
0100
1001
0110
1000
0100
,
0010
1001
0001
0010
0200
0000
0302
1000
,
0010
1100
0003
1100
0100
0010
2001
0000
,
3201
0011
0320
1100
0032
0000
0203
0000
,
0301
0010
0100
0011
2010
0000
3010
0100
,
0021
0000
1030
0010
1100
0002
0100
1000
,
0010
1103
0000
1100
0100
0010
2001
0000
,
3210
1001
0321
1100
0032
0000
1003
0010
,
1100
0010
0001
0100
0011
1000
0010
0100
,
1000
0011
0100
0010
1100
0010
0102
0010
,
0100
1100
0003
1100
0001
0001
0100
1000
,
0012
0100
2003
0100
3012
0000
2003
0000
,
3001
1100
0010
1000
0011
1000
0001
0100
,
0020
1100
1030
0011
0100
0020
1000
0001
,
1030
0011
0000
0011
0100
0010
1000
0100
,
1102
0010
2003
0011
3021
0000
1000
0031
,
0100
1100
0000
1100
1001
1001
0010
0100
,
0002
0000
2003
0000
0000
0000
3012
0100
,
0100
1000
0000
0100
1100
0000
2103
0010
,
0011
0100
0000
0100
0011
0000
3201
0010
,
0010
0001
0000
0010
0011
0011
1320
0001
,
1000
1100
0000
1000
1100
1100
2031
0100
,
0010
0100
0000
0001
0101
0000
3010
1001
,
0000
0000
0100
1001
0020
0000
1030
0000
,
1120
0000
1130
2001
0100
3011
0010
1100
,
0002
1100
0213
1001
1000
0300
0010
0000
,
0211
0000
0311
1002
0010
1103
0100
0011
,
1200
0000
0011
0000
0301
0000
1000
0000
0020
0000
0000
0030
1000
0000
0000
0000
,
0211
0000
0311
1002
0010
1103
1000
0011
,
1200
0000
0011
0000
0301
0000
1000
0000
0020
0000
0000
0030
1000
0000
0000
0000
,
0211
0000
0311
1002
0010
1103
1000
0011
,
1200
0000
0011
0000
0301
0000
1000
0000
0020
0000
0000
0030
2002
0000
0000
0000
,
0000
0000
0000
3003
,
0000
0000
0000
0000
;
